Sign In

stretch009

User Group
Members
Join date
30-Mar-2011
Last activity
22-Oct-2020
Posts
990

Post History

Post
#1373199
Topic
Star Wars: The Coaxium Heist (COMPLETED)
Time

Aroki said:

stretch009 said:

Aroki said:

DigMod said:

JakeRyan17, my website has a request form.

Aroki, can you share a shot of your mediainfo on the file to see what’s happening?

Hmm, dont know which media-info you mean,

https://www.videohelp.com/software/MediaInfo

https://mediaarea.net/en/MediaInfo

https://en.wikipedia.org/wiki/MediaInfo

In some ways I prefer ‘Mediainfo Lite’.

THANK YOU 😃
Thats what MediaInfo Lite says about it:
Audio
ID : 1
Format : AAC LC
Format/Info : Advanced Audio Codec Low Complexity
Codec ID : mp4a-40-2
Duration : 2 h 12 min
Bit rate mode : Constant
Bit rate : 512 kb/s
Channel(s) : 6 channels
Channel layout : C L R Ls Rs LFE
Sampling rate : 48.0 kHz
Frame rate : 46.875 FPS (1024 SPF)
Compression mode : Lossy
Stream size : 485 MiB (4%)
Language : English
Encoded date : UTC 2019-10-16 10:55:08
Tagged date : UTC 2019-10-16 10:55:08

Edit:
I managed to encode it via VidCoder. Now its possible to Mux it with sound. The original Mp4 still doesn’t work. But at least I can make a blu ray now 😉

You definitely should post your video mediainfo as well as audio. I can tell you if it’s BD compatible. For starters it has to be exactly 1920x1080 or 1280x720 if DigMod’s project is only 1080p or 720p.

Post
#1373130
Topic
Star Wars: The Coaxium Heist (COMPLETED)
Time

Aroki said:

stretch009 said:

Aroki said:

DigMod said:

JakeRyan17, my website has a request form.

Aroki, can you share a shot of your mediainfo on the file to see what’s happening?

Hmm, dont know which media-info you mean,

https://www.videohelp.com/software/MediaInfo

https://mediaarea.net/en/MediaInfo

https://en.wikipedia.org/wiki/MediaInfo

In some ways I prefer ‘Mediainfo Lite’.

THANK YOU 😃
Thats what MediaInfo Lite says about it:
Audio
ID : 1
Format : AAC LC
Format/Info : Advanced Audio Codec Low Complexity
Codec ID : mp4a-40-2
Duration : 2 h 12 min
Bit rate mode : Constant
Bit rate : 512 kb/s
Channel(s) : 6 channels
Channel layout : C L R Ls Rs LFE
Sampling rate : 48.0 kHz
Frame rate : 46.875 FPS (1024 SPF)
Compression mode : Lossy
Stream size : 485 MiB (4%)
Language : English
Encoded date : UTC 2019-10-16 10:55:08
Tagged date : UTC 2019-10-16 10:55:08

Edit:
I managed to encode it via VidCoder. Now its possible to Mux it with sound. The original Mp4 still doesn’t work. But at least I can make a blu ray now 😉

NO you can’t make a blu ray with AAC audio. That is NOT within BD spec. You need to convert it to another format. I recommend AC3 audio. You can use TFM audio tool or xvid4psp for that. Google is your friend…

Post
#1373125
Topic
Star Wars: The Coaxium Heist (COMPLETED)
Time

Aroki said:

DigMod said:

JakeRyan17, my website has a request form.

Aroki, can you share a shot of your mediainfo on the file to see what’s happening?

Hmm, dont know which media-info you mean,

https://www.videohelp.com/software/MediaInfo

https://mediaarea.net/en/MediaInfo

https://en.wikipedia.org/wiki/MediaInfo

In some ways I prefer ‘Mediainfo Lite’.

Post
#1365306
Topic
Amadeus - Theatrical Cut Restoration 1080p (V2) (Released)
Time

durvasa said:

Amadeus was a favorite of mine since childhood, and I’ve owned the Director’s Cut DVD since it came out but miss the old theatrical version. It’s crazy to me that there isn’t a quality version of this award-winning masterpiece that is available for purchase.

I would love a link, if you can send it! Thanks for the work you do.

Actually the Theatrical cut has been available on DVD since 1997. As far as HD goes it’s in the same boat as the Theatricals of Star Wars 77-83.

Post
#1361777
Topic
44rh1n's "The Fellowship of the Ring" Extended Edition Color Restoration (Released)
Time

44rh1n said:

stretch009 said:

44rh1n said:

brian0975 said:

Amazing work.
I have the BD Extended Edition trilogy. I would love to have a copy of this masterpiece if it’s still available. I am happy to offer proof of ownership and a PayPal contribution.

Thanks! Feel free to send me a DM, if you haven’t already. And my restoration is free for anyone who owns the extended Blu-ray (it’s important to support the filmmakers and studios who make the films we love). Fan restorations should never be bought or sold. 🙂 But if you’re interested in donating towards the creation of future restoration releases, you’re absolutely welcome to. It’s completely optional, of course. https://www.paypal.me/44rh1n/

I know what a PM is, what does this uncommon DM mean?

It’s not uncommon. DM = Direct Message, PM = Private Message. They’re the same thing. 🙂

It’s uncommon on this site.

Post
#1361775
Topic
44rh1n's "The Fellowship of the Ring" Extended Edition Color Restoration (Released)
Time

44rh1n said:

brian0975 said:

Amazing work.
I have the BD Extended Edition trilogy. I would love to have a copy of this masterpiece if it’s still available. I am happy to offer proof of ownership and a PayPal contribution.

Thanks! Feel free to send me a DM, if you haven’t already. And my restoration is free for anyone who owns the extended Blu-ray (it’s important to support the filmmakers and studios who make the films we love). Fan restorations should never be bought or sold. 🙂 But if you’re interested in donating towards the creation of future restoration releases, you’re absolutely welcome to. It’s completely optional, of course. https://www.paypal.me/44rh1n/

I know what a PM is, what does this uncommon DM mean?

Post
#1358744
Topic
Amadeus - Theatrical Cut Restoration 1080p (V2) (Released)
Time

MikeLEF said:

This is one of my favorite movies! I had given up hope ever finding the original theatrical version. I stopped looking. I happened to be having a chat with my son this evening, and Amadeus came up. I don’t know how it’s possible that he has never seen it! I went looking online to see if anything had changed in the past decade or so, and I found this thread!

May I also please have the download link?

Thank you very much!

PM sent!