Sign In

stretch009

User Group
Trusted Members
Join date
30-Mar-2011
Last activity
20-Feb-2019
Posts
882

Post History

Post
#1097511
Topic
STAR WARS: EP V &quot;REVISITED EDITION&quot;<strong>ADYWAN</strong> - <strong>AVAILABLE NOW</strong>
Time

Swift S. Lawliet said:

Captain Antilles said:

Swift S. Lawliet said:

When is the DVD-5 version coming out?
Already have the MKV version but I’m just curious.

This question has been answered many, many, many times. The answer is right in Ady’s post as well as on the WordPress. Please do your homework first.

He said he will do a DVD-5 alongside the MKV for now, while the DVD-9 version and the Blu-ray ISO will come later.
He said that the DVD-5 will come shortly after the MKV but the DVD-9 and the Blu-ray will come much later.

And if you can’t wait, ‘AVStoDVD’, ‘MultiAVCHD’, and ‘BDRebuilder’ are three different free programs that will convert the MKV to a DVD-5 or DVD-9.

Post
#1085437
Topic
STAR WARS: EP V &quot;REVISITED EDITION&quot;<strong>ADYWAN</strong> - <strong>AVAILABLE NOW</strong>
Time

ray_afraid said:

Swift S. Lawliet said:

Can Adywan make a DVD-5 movie disc of ESB:R in addition to the other versions when it comes out?
Just lower the quality only a tiny bit so it can fit on a DVD-5 disc, it should be really simple.

So simple, someone who needs it could do it themselves.

BD Rebuilder, MultiAVCHD, and AVStoDVD all do it quite nicely.

Post
#1080306
Topic
Amadeus - Theatrical Cut Restoration 1080p (V2)
Time

joefavs said:

Tried to burn this to a disc with TSMuxer but it wouldn’t play. Does anyone know if there’s an easy fix in the settings? I just used the defaults on my first try. Not too keen on going the trial-and-error route.

From my upload on Myspleen, and from earlier in this thread:

For those authoring a Blu Ray from the MKV with TSMuxer, you need to select “Do not change SEI and VUI data”

Post
#1077570
Topic
The Abyss - Special Edition (1989) BluRay Project *BD-50* x2 *DELETED*
Time

Mjvmovieman said:

stretch009 said:

^…^ said:

It is on the wild… “google is your friend” (usually)! 😄

I’ve found the AXN rip in many places but it’s always 25fps. I find it hard to believe you have an AXN rip that’s 23.976. Are you sure you didn’t convert it to 23.976 yourself?

I was able to find the AXN source, no logo, at the proper frame rate - open matte. Much better!

I’m upping this to the spleen right now and there’s 4 days left of free leech.

Post
#1077311
Topic
The Abyss - Special Edition (1989) BluRay Project *BD-50* x2 *DELETED*
Time

Mjvmovieman said:

stretch009 said:

^…^ said:

It is on the wild… “google is your friend” (usually)! 😄

I’ve found the AXN rip in many places but it’s always 25fps. I find it hard to believe you have an AXN rip that’s 23.976. Are you sure you didn’t convert it to 23.976 yourself?

I was able to find the AXN source, no logo, at the proper frame rate - open matte. Much better!

@ Mjvmovieman

PM sent.

Post
#1073912
Topic
Denoise, Regrain And CC of ESB Grindhouse
Time

joefavs said:

I’m having trouble getting this on a disc. I muxed in the DTS-HD tracks from Despecialized and made an ISO, but the disc I burned it to doesn’t play and VLC crashes when I try to open the disc image. I’ll try it again in the morning, but I’m wondering if anyone else has had a problem with this or if it’s just a fluke.

EDIT: I’m watching it now off my hard drive and it really is lovely. This is definitely the only ESB I’m watching until Poita’s is out.

Like I said above this post, I wonder if it’s because he encoded it with the “Main” profile. I’ve had problems before with the “Main” profile. The most telling thing is, I believe, is that I think all blu-rays are encoded with the “High” profile.

Post
#1071491
Topic
Titanic UK HDTV broadcast (pre 2012 changes)
Time

Okay, so I just finished downloading the same file. I want to convert it to a blu ray-compliant file but there’s just one thing I need to know. Is it interlaced or progressive? The mediainfo output says Progressive but you can’t always trust that. By playing it back in WMP and VLC it does appear to be in fact Progressive.

If someone that knows more than me about such things could help out it would be much appreciated. Also, I’m planning on upping the converted one to the spleen. Here’s the mediainfo:

General
ID : 1 (0x1)
Complete name : G:\Titanic.HDTV.1080p.H264.MIF.ts
Format : MPEG-TS
File size : 25.1 GiB
Duration : 3h 6mn
Overall bit rate mode : Variable
Overall bit rate : 19.2 Mbps
Maximum Overall bit rate : 35.5 Mbps

Video
ID : 4113 (0x1011)
Menu ID : 1 (0x1)
Format : AVC
Format/Info : Advanced Video Codec
Format profile : Main@L4
Format settings, CABAC : Yes
Format settings, ReFrames : 2 frames
Codec ID : 27
Duration : 7s 80ms
Bit rate mode : Variable
Bit rate : 17.4 Mbps
Maximum bit rate : 55.0 Mbps
Width : 1 920 pixels
Height : 1 088 pixels
Display aspect ratio : 16:9
Frame rate : 25.000 fps
Color space : YUV
Chroma subsampling : 4:2:0
Bit depth : 8 bits
Scan type : Progressive
Bits/(Pixel*Frame) : 0.334
Stream size : 14.7 MiB (0%)
Color range : Full
Color primaries : BT.709
Transfer characteristics : BT.709
Matrix coefficients : BT.709

Audio #1
ID : 4352 (0x1100)
Menu ID : 1 (0x1)
Format : AC-3
Format/Info : Audio Coding 3
Mode extension : CM (complete main)
Format settings, Endianness : Big
Codec ID : 129
Duration : 3h 6mn
Bit rate mode : Constant
Bit rate : 448 Kbps
Channel(s) : 6 channels
Channel positions : Front: L C R, Side: L R, LFE
Sampling rate : 48.0 KHz
Frame rate : 31.250 fps (1536 spf)
Compression mode : Lossy
Delay relative to video : 27ms
Stream size : 599 MiB (2%)
Language : Russian

Audio #2
ID : 4353 (0x1101)
Menu ID : 1 (0x1)
Format : AC-3
Format/Info : Audio Coding 3
Mode extension : CM (complete main)
Format settings, Endianness : Big
Codec ID : 129
Duration : 3h 6mn
Bit rate mode : Constant
Bit rate : 384 Kbps
Channel(s) : 6 channels
Channel positions : Front: L C R, Side: L R, LFE
Sampling rate : 48.0 KHz
Frame rate : 31.250 fps (1536 spf)
Compression mode : Lossy
Delay relative to video : 27ms
Stream size : 513 MiB (2%)
Language : English

Post
#1071416
Topic
Titanic UK HDTV broadcast (pre 2012 changes)
Time

cpalmer2k said:

stretch009 said:

cpalmer2k said:

JayArgonaut said:

Yeah, I saw that listed on the Spleen. Have you watched it and if so, what’s your verdict? Do you prefer the fan edit or the theatrical?

I did download the Russian version of “Titanic” listed above and it is definitely the older version and appears to be complete.

It’s on a Russian site and I think it has Russian audio as well as English. That definitely doesn’t mean it’s a “Russian version”, it could be from the UK, etc;,. I’ve been downloading from Rutracker long enough to know that.

and the 21st Century Fox opening instead of the Paramount one we get here in the USA.

Interesting, I didn’t know that. Almost everything on Rutracker has several Russian audio first and than one or two English audio. Some smaller files are only Russian audio.

Post
#1071411
Topic
Titanic UK HDTV broadcast (pre 2012 changes)
Time

cpalmer2k said:

JayArgonaut said:

Yeah, I saw that listed on the Spleen. Have you watched it and if so, what’s your verdict? Do you prefer the fan edit or the theatrical?

I did download the Russian version of “Titanic” listed above and it is definitely the older version and appears to be complete.

It’s on a Russian site and I think it has Russian audio as well as English. That definitely doesn’t mean it’s a “Russian version”, it could be from the UK, etc;,. I’ve been downloading from Rutracker long enough to know that.

Post
#1071273
Topic
Titanic UK HDTV broadcast (pre 2012 changes)
Time

JayArgonaut said:

Thanks, found it with the upload date that you included. 😃

Looks very good indeed. My C4 HDTV recording clocks in at 9.15 GB and that includes the commercial breaks whilst this one is 25.07 GB and commercial free so there’s no contest. The running time is listed as 03:06:49 and the official theatrical is 3hrs 15m. The credits have probably been time compressed or removed.

Perhaps someone who has downloaded it can confirm?

T1
T2
T3
T4
T5

The answer is: the time difference is from the fact that it is 25fps. (It says on the page)