Sign In

erminhohp2011

User Group
Members
Join date
26-Jun-2017
Last activity
31-Mar-2020
Posts
3

Post History

Post
#1331955
Topic
Harry Potter Extended Editions (Released)
Time

JJPotter said:

I’m glad you are enjoying the edits. I have a hard time watching the “official” ones now because I know where all of the deleted material goes. The originals don’t feel complete. I appreciate the kind words.

In all honesty, I haven’t worked on the edits in a while. I had a death in our family back in August which has knocked the wind out of my sails for a bit. I am getting the itch again to get back into editing to get my mind off of things. I have a small portion of the Dudley Redemption completed (the first few seconds with the wide shot of Vernon talking to Harry, saying this is farewell). In that part I have the green screen completely removed and it looks good. The next part is a bit more complicated since there are a couple of green screen areas along with camera movement. Once I get those set up, I should be able to complete that scene, which is the one scene I feel should have never been cut.

Keep an eye on the topic thread for updates.

Sorry for your loss… 😕

hello, sorry for my bad english, I am from Brazil, I would love to watch this experience of the extended versions of Harry Potter, I have all the original media movies, if you can send me the download links, I would be very grateful.

Post
#1086311
Topic
Harry Potter & the Deathly Hallows part 2 open matte broadcast (Released)
Time

What do y’all think about quality?

https://postimg.org/image/iqdcodle5
https://postimg.org/image/kxbijxzwf

But remember, the version that I captured is the OpenMatte/Pan&Scan version!!! With scenes in OpenMatte and Pan&Scan

Look the Media Info.

Video
ID : 1
Format : AVC
Format/Info : Advanced Video Codec
Format profile : Main@L4.1
Format settings, CABAC : Yes
Format settings, ReFrames : 2 frames
Format settings, GOP : M=3, N=46
Muxing mode : Container profile=Baseline@3.0
Codec ID : avc1
Codec ID/Info : Advanced Video Coding
Duration : 2 h 10 min
Duration_FirstFrame : -10 ms
Bit rate mode : Variable
Bit rate : 56.1 Mb/s
Maximum bit rate : 60.0 Mb/s
Width : 1 920 pixels
Height : 1 080 pixels
Display aspect ratio : 16:9
Frame rate mode : Constant
Frame rate : 25.000 FPS
Color space : YUV
Chroma subsampling : 4:2:0
Bit depth : 8 bits
Scan type : Progressive
Bits/(Pixel*Frame) : 1.081
Stream size : 51.5 GiB (99%)
Language : English
Encoded date : UTC 2017-05-14 08:13:01
Tagged date : UTC 2017-05-14 08:13:01

Audio
ID : 2
Format : AAC
Format/Info : Advanced Audio Codec
Format profile : LC
Codec ID : 40
Duration : 2 h 10 min
Bit rate mode : Constant
Bit rate : 512 kb/s
Channel(s) : 6 channels
Channel positions : Front: L C R, Side: L R, LFE
Sampling rate : 48.0 kHz
Frame rate : 46.875 FPS (1024 spf)
Compression mode : Lossy
Stream size : 478 MiB (1%)
Language : English
Encoded date : UTC 2017-05-14 08:13:01
Tagged date : UTC 2017-05-14 08:13:01

Post
#1086216
Topic
Harry Potter & the Deathly Hallows part 2 open matte broadcast (Released)
Time

Hey Guys, I Have Harry Potter and the Deathly Hallows - Part 2 (Full Movie) in FULL HD 1080p and in AAC 5.1ch 512 kbps Without any logo or masked logo (Open Matte/Pan&Scan WEB-DL version) 😉 it have 50GB! It was me, who captured this version. I think it’s the same version that HBO broadcasted, but no logo!

I will find a way to put it to download…

Take a look here: https://postimg.org/image/e439irxwl/

Sorry my english, I’m from Brazil…