Sign In

Middle Earth- Chronological-Complete-Edition-Extended-Bluray-FanEdit

Author
Time
 (Edited)

after months of hard work I finalized my first fan edit today
Includes all Lord of the Rings and Hobbit movies with all scenes deleted
excludes all openings and ends credits.
I put chronology in order.
total time: 19:16:00
No subtitle.
I’ll upload soon

Unique ID : 203743392054520419940749876784732272628 (0x99478CCB05D9DF6A03DC596C6E5777F4)
Complete name : G:\a\MiddleEath- Chronological-Complete-Edition-Extended-Bluray-FanEdit.mkv
Format : Matroska
Format version : Version 4
File size : 20.5 GiB
Duration : 19 h 16 min
Overall bit rate : 2 536 kb/s
Writing application : Lavf58.27.103
Writing library : Lavf58.27.103
ErrorDetectionType : Per level 1

Video
ID : 1
Format : HEVC
Format/Info : High Efficiency Video Coding
Format profile : Main@L4@Main
Codec ID : V_MPEGH/ISO/HEVC
Duration : 19 h 16 min
Bit rate : 2 038 kb/s
Width : 1 920 pixels
Height : 800 pixels
Display aspect ratio : 2.40:1
Frame rate mode : Constant
Frame rate : 23.976 (24000/1001) FPS
Color space : YUV
Chroma subsampling : 4:2:0
Bit depth : 8 bits
Bits/(Pixel*Frame) : 0.055
Stream size : 16.5 GiB (80%)
Default : Yes
Forced : No
Color range : Limited
Statistics Tags Issue : DVDFab 10.0.2.2 2017-05-06 15:04:03 / Lavf58.27.103
FromStats_BitRate : 2077328
FromStats_Duration : 19:16:09.790000000
FromStats_FrameCount : 262536
FromStats_StreamSize : 2843327718

Audio
ID : 2
Format : AC-3
Format/Info : Audio Coding 3
Commercial name : Dolby Digital
Codec ID : A_AC3
Duration : 19 h 16 min
Bit rate mode : Constant
Bit rate : 448 kb/s
Channel(s) : 6 channels
Channel layout : L R C LFE Ls Rs
Sampling rate : 48.0 kHz
Frame rate : 31.250 FPS (1536 SPF)
Bit depth : 16 bits
Compression mode : Lossy
Delay relative to video : 13 ms
Stream size : 3.62 GiB (18%)
Language : English
Service kind : Complete Main
Default : Yes
Forced : No
Statistics Tags Issue : DVDFab 10.0.2.2 2017-05-06 15:04:03 / Lavf58.27.103
FromStats_BitRate : 448000
FromStats_Duration : 19:16:09.805000000
FromStats_FrameCount : 342230
FromStats_StreamSize : 613276160

Author
Time

there scenes in they don´t in the Extended versions are?

Author
Time

Wooooow this sounds epic…I’ll be checking back here for this monster!

Author
Time

is there one file with 19h of film or more parts?
i´d like to watch it too.