Sign In

Post #1385297

Author
TheHutt
Parent topic
Back To The Future - Preserving the German Version (Released)
Link to post in topic
https://originaltrilogy.com/post/id/1385297/action/topic#1385297
Date created
10-Nov-2020, 6:53 AM

BACK TO THE FUTURE PART III

Complete name                            : Zurueck_In_Die_Zukunft_Teil_III.mkv
Format                                   : Matroska
Format version                           : Version 4
File size                                : 19.7 GiB
Duration                                 : 1 h 58 min
Overall bit rate mode                    : Variable
Overall bit rate                         : 23.7 Mb/s
Encoded date                             : UTC 2020-11-09 07:03:16
Writing application                      : mkvmerge v50.0.0 ('Awakenings') 64-bit
Writing library                          : libebml v1.4.0 + libmatroska v1.6.2
Attachments                              : BTTFAvantGardeStd-Md.ttf / IndUni-H-Regular.ttf / IndUni-H-Oblique.ttf / IndUni-H-BoldOblique.ttf / IndUni-H-Bold.ttf

Video
ID                                       : 1
Format                                   : AVC
Format/Info                              : Advanced Video Codec
Format profile                           : High@L4.1
Format settings                          : CABAC / 4 Ref Frames
Format settings, CABAC                   : Yes
Format settings, Reference frames        : 4 frames
Codec ID                                 : V_MPEG4/ISO/AVC
Duration                                 : 1 h 58 min
Bit rate                                 : 21.0 Mb/s
Width                                    : 1 920 pixels
Height                                   : 1 080 pixels
Display aspect ratio                     : 16:9
Frame rate mode                          : Constant
Frame rate                               : 23.976 (24000/1001) FPS
Color space                              : YUV
Chroma subsampling                       : 4:2:0
Bit depth                                : 8 bits
Scan type                                : Progressive
Bits/(Pixel*Frame)                       : 0.422
Stream size                              : 17.3 GiB (88%)
Writing library                          : x264 core 157 r2935 545de2f
Encoding settings                        : cabac=1 / ref=4 / deblock=1:-1:-1 / analyse=0x3:0x113 / me=hex / subme=8 / psy=1 / psy_rd=1.00:0.15 / mixed_ref=1 / me_range=16 / chroma_me=1 / trellis=2 / 8x8dct=1 / cqm=0 / deadzone=21,11 / fast_pskip=1 / chroma_qp_offset=-3 / threads=12 / lookahead_threads=2 / sliced_threads=0 / nr=0 / decimate=1 / interlaced=0 / bluray_compat=0 / constrained_intra=0 / bframes=3 / b_pyramid=2 / b_adapt=1 / b_bias=0 / direct=3 / weightb=1 / open_gop=0 / weightp=2 / keyint=240 / keyint_min=24 / scenecut=40 / intra_refresh=0 / rc_lookahead=50 / rc=2pass / mbtree=1 / bitrate=21000 / ratetol=1.0 / qcomp=0.60 / qpmin=0 / qpmax=69 / qpstep=4 / cplxblur=20.0 / qblur=0.5 / vbv_maxrate=62500 / vbv_bufsize=78125 / nal_hrd=none / filler=0 / ip_ratio=1.40 / aq=1:1.00
Default                                  : Yes
Forced                                   : No
Color range                              : Limited
Color primaries                          : BT.709
Transfer characteristics                 : BT.709
Matrix coefficients                      : BT.709

Audio #1
ID                                       : 2
Format                                   : FLAC
Format/Info                              : Free Lossless Audio Codec
Codec ID                                 : A_FLAC
Duration                                 : 1 h 58 min
Bit rate mode                            : Variable
Bit rate                                 : 1 468 kb/s
Channel(s)                               : 2 channels
Sampling rate                            : 48.0 kHz
Frame rate                               : 11.719 FPS (4096 SPF)
Bit depth                                : 24 bits
Compression mode                         : Lossless
Stream size                              : 1.21 GiB (6%)
Title                                    : Deutsch 2.0 (LD)
Writing library                          : libFLAC 1.2.1 (UTC 2007-09-17)
Language                                 : German
Default                                  : Yes
Forced                                   : No

Audio #2
ID                                       : 3
Format                                   : FLAC
Format/Info                              : Free Lossless Audio Codec
Codec ID                                 : A_FLAC
Duration                                 : 1 h 58 min
Bit rate mode                            : Variable
Bit rate                                 : 1 323 kb/s
Channel(s)                               : 2 channels
Sampling rate                            : 48.0 kHz
Frame rate                               : 11.719 FPS (4096 SPF)
Bit depth                                : 24 bits
Compression mode                         : Lossless
Stream size                              : 1.10 GiB (6%)
Title                                    : English 2.0 (LD)
Writing library                          : libFLAC 1.2.1 (UTC 2007-09-17)
Language                                 : English
Default                                  : No
Forced                                   : No

Text #1
ID                                       : 4
Format                                   : ASS
Codec ID                                 : S_TEXT/ASS
Codec ID/Info                            : Advanced Sub Station Alpha
Duration                                 : 6 s 210 ms
Bit rate                                 : 274 b/s
Count of elements                        : 3
Compression mode                         : Lossless
Stream size                              : 213 Bytes (0%)
Title                                    : Deutsch (Begleitender Text)
Language                                 : German
Default                                  : Yes
Forced                                   : Yes

Text #2
ID                                       : 5
Format                                   : ASS
Codec ID                                 : S_TEXT/ASS
Codec ID/Info                            : Advanced Sub Station Alpha
Duration                                 : 6 s 210 ms
Bit rate                                 : 274 b/s
Count of elements                        : 3
Compression mode                         : Lossless
Stream size                              : 213 Bytes (0%)
Title                                    : English (Inserts)
Language                                 : English
Default                                  : No
Forced                                   : No

Text #3
ID                                       : 6
Format                                   : ASS
Codec ID                                 : S_TEXT/ASS
Codec ID/Info                            : Advanced Sub Station Alpha
Duration                                 : 1 h 50 min
Bit rate                                 : 95 b/s
Count of elements                        : 1288
Compression mode                         : Lossless
Stream size                              : 77.1 KiB (0%)
Title                                    : Deutsch
Language                                 : German
Default                                  : No
Forced                                   : No

Text #4
ID                                       : 7
Format                                   : ASS
Codec ID                                 : S_TEXT/ASS
Codec ID/Info                            : Advanced Sub Station Alpha
Duration                                 : 1 h 50 min
Bit rate                                 : 102 b/s
Count of elements                        : 1559
Compression mode                         : Lossless
Stream size                              : 82.9 KiB (0%)
Title                                    : English
Language                                 : English
Default                                  : No
Forced                                   : No

Menu
00:00:00.000                             : en:Chapter 01
00:02:51.004                             : en:Chapter 02
00:05:01.801                             : en:Chapter 03
00:12:42.678                             : en:Chapter 04
00:15:50.032                             : en:Chapter 05
00:22:15.876                             : en:Chapter 06
00:30:04.260                             : en:Chapter 07
00:33:16.786                             : en:Chapter 08
00:37:45.346                             : en:Chapter 09
00:41:54.970                             : en:Chapter 10
00:50:43.999                             : en:Chapter 11
00:56:59.332                             : en:Chapter 12
01:06:26.107                             : en:Chapter 13
01:16:23.745                             : en:Chapter 14
01:20:45.507                             : en:Chapter 15
01:30:34.345                             : en:Chapter 16
01:42:20.425                             : en:Chapter 17
01:46:07.903                             : en:Chapter 18
01:48:08.607                             : en:Chapter 19
01:51:53.498                             : en:Chapter 20