Sign In

Post #1385296

Author
TheHutt
Parent topic
Back To The Future - Preserving the German Version (Released)
Link to post in topic
https://originaltrilogy.com/post/id/1385296/action/topic#1385296
Date created
10-Nov-2020, 6:52 AM

BACK TO THE FUTURE PART II

Complete name                            : Zurueck_In_Die_Zukunft_Teil_II.mkv
Format                                   : Matroska
Format version                           : Version 4
File size                                : 17.5 GiB
Duration                                 : 1 h 48 min
Overall bit rate mode                    : Variable
Overall bit rate                         : 23.2 Mb/s
Encoded date                             : UTC 2020-11-10 06:50:57
Writing application                      : mkvmerge v51.0.0 ('I Wish') 64-bit
Writing library                          : libebml v1.4.0 + libmatroska v1.6.2
Attachments                              : BTTFAvantGardeStd-Md.ttf / IndUni-H-Regular.ttf / IndUni-H-Oblique.ttf / IndUni-H-BoldOblique.ttf / IndUni-H-Bold.ttf

Video
ID                                       : 1
Format                                   : AVC
Format/Info                              : Advanced Video Codec
Format profile                           : High@L4.1
Format settings                          : CABAC / 4 Ref Frames
Format settings, CABAC                   : Yes
Format settings, Reference frames        : 4 frames
Codec ID                                 : V_MPEG4/ISO/AVC
Duration                                 : 1 h 47 min
Bit rate                                 : 22.0 Mb/s
Width                                    : 1 920 pixels
Height                                   : 1 080 pixels
Display aspect ratio                     : 16:9
Frame rate mode                          : Constant
Frame rate                               : 23.976 (24000/1001) FPS
Color space                              : YUV
Chroma subsampling                       : 4:2:0
Bit depth                                : 8 bits
Scan type                                : Progressive
Bits/(Pixel*Frame)                       : 0.443
Stream size                              : 16.6 GiB (95%)
Writing library                          : x264 core 157 r2935 545de2f
Encoding settings                        : cabac=1 / ref=4 / deblock=1:-1:-1 / analyse=0x3:0x113 / me=hex / subme=8 / psy=1 / psy_rd=1.00:0.15 / mixed_ref=1 / me_range=16 / chroma_me=1 / trellis=2 / 8x8dct=1 / cqm=0 / deadzone=21,11 / fast_pskip=1 / chroma_qp_offset=-3 / threads=12 / lookahead_threads=2 / sliced_threads=0 / nr=0 / decimate=1 / interlaced=0 / bluray_compat=0 / constrained_intra=0 / bframes=3 / b_pyramid=2 / b_adapt=1 / b_bias=0 / direct=3 / weightb=1 / open_gop=0 / weightp=2 / keyint=240 / keyint_min=24 / scenecut=40 / intra_refresh=0 / rc_lookahead=50 / rc=2pass / mbtree=1 / bitrate=22000 / ratetol=1.0 / qcomp=0.60 / qpmin=0 / qpmax=69 / qpstep=4 / cplxblur=20.0 / qblur=0.5 / vbv_maxrate=62500 / vbv_bufsize=78125 / nal_hrd=none / filler=0 / ip_ratio=1.40 / aq=1:1.00
Default                                  : Yes
Forced                                   : No
Color range                              : Limited
Color primaries                          : BT.709
Transfer characteristics                 : BT.709
Matrix coefficients                      : BT.709

Audio #1
ID                                       : 2
Format                                   : FLAC
Format/Info                              : Free Lossless Audio Codec
Codec ID                                 : A_FLAC
Duration                                 : 1 h 47 min
Bit rate mode                            : Variable
Bit rate                                 : 673 kb/s
Channel(s)                               : 2 channels
Sampling rate                            : 44.1 kHz
Frame rate                               : 10.767 FPS (4096 SPF)
Bit depth                                : 16 bits
Compression mode                         : Lossless
Stream size                              : 520 MiB (3%)
Title                                    : Deutsch 2.0 (LD)
Writing library                          : libFLAC 1.2.1 (UTC 2007-09-17)
Language                                 : German
Default                                  : Yes
Forced                                   : No

Audio #2
ID                                       : 3
Format                                   : FLAC
Format/Info                              : Free Lossless Audio Codec
Codec ID                                 : A_FLAC
Duration                                 : 1 h 48 min
Bit rate mode                            : Variable
Bit rate                                 : 591 kb/s
Channel(s)                               : 2 channels
Sampling rate                            : 48.0 kHz
Frame rate                               : 11.719 FPS (4096 SPF)
Bit depth                                : 24 bits
Compression mode                         : Lossless
Stream size                              : 457 MiB (3%)
Title                                    : English 2.0 (LD)
Writing library                          : libFLAC 1.2.1 (UTC 2007-09-17)
Language                                 : English
Default                                  : No
Forced                                   : No

Text #1
ID                                       : 4
Format                                   : ASS
Codec ID                                 : S_TEXT/ASS
Codec ID/Info                            : Advanced Sub Station Alpha
Duration                                 : 1 h 35 min
Bit rate                                 : 1 b/s
Count of elements                        : 18
Compression mode                         : Lossless
Stream size                              : 1.09 KiB (0%)
Title                                    : Deutsch (Begleitender Text)
Language                                 : German
Default                                  : Yes
Forced                                   : Yes

Text #2
ID                                       : 5
Format                                   : ASS
Codec ID                                 : S_TEXT/ASS
Codec ID/Info                            : Advanced Sub Station Alpha
Duration                                 : 4 s 880 ms
Bit rate                                 : 262 b/s
Count of elements                        : 3
Compression mode                         : Lossless
Stream size                              : 160 Bytes (0%)
Title                                    : English (Inserts)
Language                                 : English
Default                                  : No
Forced                                   : No

Text #3
ID                                       : 6
Format                                   : ASS
Codec ID                                 : S_TEXT/ASS
Codec ID/Info                            : Advanced Sub Station Alpha
Duration                                 : 1 h 42 min
Bit rate                                 : 98 b/s
Count of elements                        : 1237
Compression mode                         : Lossless
Stream size                              : 73.7 KiB (0%)
Title                                    : Deutsch
Language                                 : German
Default                                  : No
Forced                                   : No

Text #4
ID                                       : 7
Format                                   : ASS
Codec ID                                 : S_TEXT/ASS
Codec ID/Info                            : Advanced Sub Station Alpha
Duration                                 : 1 h 42 min
Bit rate                                 : 110 b/s
Count of elements                        : 1506
Compression mode                         : Lossless
Stream size                              : 82.6 KiB (0%)
Title                                    : English
Language                                 : English
Default                                  : No
Forced                                   : No

Menu
00:00:00.000                             : en:Chapter 01
00:02:56.176                             : en:Chapter 02
00:04:16.297                             : en:Chapter 03
00:12:43.053                             : en:Chapter 04
00:17:07.776                             : en:Chapter 05
00:21:15.190                             : en:Chapter 06
00:26:58.325                             : en:Chapter 07
00:34:14.093                             : en:Chapter 08
00:38:31.142                             : en:Chapter 09
00:46:11.727                             : en:Chapter 10
00:50:34.114                             : en:Chapter 11
00:55:31.286                             : en:Chapter 12
01:01:28.810                             : en:Chapter 13
01:07:12.862                             : en:Chapter 14
01:14:44.605                             : en:Chapter 15
01:27:59.274                             : en:Chapter 16
01:34:41.967                             : en:Chapter 17
01:37:44.692                             : en:Chapter 18
01:40:35.904                             : en:Chapter 19
01:43:24.156                             : en:Chapter 20