Sign In

H264 problem on bluray player

Replies
0
Author
Time

Ok, I have a very annoying problem.
On my Sony bdp s280, Harmy’s despecialized run fine on my usb flashdrive.
But I try to run another video, h264 as well, and it refuses to play. The player is trying to start the video, then nothing happens, it goes immediately back to the usb folder.
Here’s mediainfo of the file:

Video
ID : 1
Format : AVC
Format/Info : Advanced Video Codec
Format profile : Main@L4
Format settings : CABAC / 4 Ref Frames
Format settings, CABAC : Yes
Format settings, RefFrames : 4 frames
Codec ID : V_MPEG4/ISO/AVC
Duration : 2 h 2 min
Bit rate : 20.0 Mb/s
Width : 1 280 pixels
Height : 720 pixels
Display aspect ratio : 16:9
Frame rate mode : Constant
Frame rate : 23.976 (24000/1001) FPS
Color space : YUV
Chroma subsampling : 4:2:0
Bit depth : 8 bits
Scan type : Progressive
Bits/(Pixel*Frame) : 0.905
Stream size : 16.4 GiB (93%)
Title : La guerre des étoiles Fr
Writing library : x264 core 142 r2479 dd79a61
Encoding settings : cabac=1 / ref=1 / deblock=1:0:0 / analyse=0x1:0x111 / me=hex / subme=2 / psy=1 / psy_rd=1.00:0.00 / mixed_ref=0 / me_range=16 / chroma_me=1 / trellis=0 / 8x8dct=0 / cqm=0 / deadzone=21,11 / fast_pskip=1 / chroma_qp_offset=0 / threads=6 / lookahead_threads=2 / sliced_threads=0 / nr=0 / decimate=1 / interlaced=0 / bluray_compat=0 / constrained_intra=0 / bframes=3 / b_pyramid=2 / b_adapt=1 / b_bias=0 / direct=1 / weightb=1 / open_gop=0 / weightp=1 / keyint=240 / keyint_min=24 / scenecut=40 / intra_refresh=0 / rc_lookahead=10 / rc=2pass / mbtree=1 / bitrate=20000 / ratetol=1.0 / qcomp=0.60 / qpmin=0 / qpmax=69 / qpstep=4 / cplxblur=20.0 / qblur=0.5 / vbv_maxrate=20000 / vbv_bufsize=25000 / nal_hrd=none / filler=0 / ip_ratio=1.40 / aq=1:1.00
Language : French
Default : Yes
Forced : No
Color range : Limited
Color primaries : BT.709
Transfer characteristics : BT.709
Matrix coefficients : BT.709

Audio
ID : 2
Format : PCM
Codec ID : A_PCM/INT/LIT
Duration : 2 h 1 min
Bit rate mode : Constant
Bit rate : 1 536 kb/s
Channel(s) : 2 channels
Sampling rate : 48.0 kHz
Frame rate : 32.000 FPS (1500 SPF)
Bit depth : 16 bits
Stream size : 1.31 GiB (7%)
Title : Français 2.0 PCM (1977)
Language : French
Default : Yes
Forced : No

Menu
00:00:00.000 : :Logo d’ouverture
00:00:21.187 : :La guerre des étoiles
00:01:54.616 : :La troupe d’abordage de l’Empire
00:04:53.335 : :La mission de R2
00:07:28.828 : :Vador menace la princesse
00:08:55.217 : :Perdus dans le désert
00:11:21.701 : :Le territoire des Jawas
00:15:23.618 : :Droïdes à vendre
00:19:19.862 : :Dans le garage
00:23:13.301 : :Dîner chez les Lars
00:25:12.225 : :Double coucher de soleil
00:27:25.196 : :L’attaque des hommes des Sables
00:28:52.319 : :Rencontre avec le vieux Ben
00:32:13.827 : :« Le sabre-laser de ton père »
00:34:32.637 : :Le message de Leia
00:36:33.762 : :L’Étoile noire
00:38:45.265 : :La maison incendiée
00:41:20.893 : :La décision de Luke
00:42:10.444 : :L’astroport de Mos Eisley
00:43:59.756 : :La Cantina
00:47:00.743 : :Yan Solo
00:49:06.038 : :Coincé par Greedo
00:50:21.951 : :La destination de l’Étoile noire
00:51:40.699 : :L’espion
00:51:48.541 : :Le Faucon millénium
00:54:30.875 : :Le destin d’Aldorande
00:56:43.846 : :L’entraînement au sabre-laser
01:00:41.791 : :« Ce n’est pas une lune… »
01:03:47.450 : :Le compartiment secret
01:05:52.946 : :Mise au point de l’évasion
01:10:03.338 : :Chewbacca prisonnier
01:11:43.640 : :Libération de la princesse
01:14:44.795 : :Dans le conduit à ordures
01:16:40.414 : :Le broyeur à ordures
01:19:00.393 : :Les murs bougent
01:22:31.277 : :Désactivation du rayon tracteur
01:24:33.103 : :Retour au vaisseau
01:27:27.250 : :Obi-wan contre Vador
01:31:19.189 : :Les chasseurs T.I.E. attaquent
01:34:10.999 : :« On nous a laissés fuir »
01:35:37.789 : :Arrivée sur Yavin 4
01:37:08.182 : :Le briefing des Rebelles
01:38:55.493 : :Le départ de Yan
01:40:08.402 : :Préparatif au combat
01:42:07.892 : :Assaut contre l’Étoile noire
01:46:48.148 : :Poursuite dans la tranchée
01:52:24.195 : :« Luke, fais appel à la Force »
01:54:52.648 : :L’accueil d’un héros
01:55:34.191 : :Cérémonie de remise des médailles
01:57:19.800 : :Générique de fin

And here’s the one of Harmy ESB, it runs flawlessly:

Video
ID : 1
Format : AVC
Format/Info : Advanced Video Codec
Format profile : High@L4.1
Format settings : CABAC / 5 Ref Frames
Format settings, CABAC : Yes
Format settings, RefFrames : 5 frames
Codec ID : V_MPEG4/ISO/AVC
Duration : 2 h 6 min
Bit rate mode : Variable
Bit rate : 15.0 Mb/s
Maximum bit rate : 25.0 Mb/s
Width : 1 280 pixels
Height : 720 pixels
Display aspect ratio : 16:9
Frame rate mode : Constant
Frame rate : 23.976 (24000/1001) FPS
Color space : YUV
Chroma subsampling : 4:2:0
Bit depth : 8 bits
Scan type : Progressive
Bits/(Pixel*Frame) : 0.679
Stream size : 13.2 GiB (99%)
Writing library : x264 core 125 r2208 d9d2288
Encoding settings : cabac=1 / ref=6 / deblock=1👎-1 / analyse=0x3:0x133 / me=umh / subme=10 / psy=1 / psy_rd=1.00:0.00 / mixed_ref=1 / me_range=64 / chroma_me=1 / trellis=2 / 8x8dct=1 / cqm=0 / deadzone=21,11 / fast_pskip=1 / chroma_qp_offset=-2 / threads=6 / lookahead_threads=1 / sliced_threads=0 / slices=4 / nr=0 / decimate=1 / interlaced=0 / bluray_compat=1 / constrained_intra=0 / bframes=3 / b_pyramid=1 / b_adapt=2 / b_bias=0 / direct=3 / weightb=1 / open_gop=1 / weightp=0 / keyint=48 / keyint_min=1 / scenecut=40 / intra_refresh=0 / rc_lookahead=48 / rc=2pass / mbtree=1 / bitrate=15000 / ratetol=1.0 / qcomp=0.80 / qpmin=0 / qpmax=69 / qpstep=4 / cplxblur=20.0 / qblur=0.5 / vbv_maxrate=25000 / vbv_bufsize=15000 / nal_hrd=vbr / ip_ratio=1.40 / aq=1:1.00
Default : Yes
Forced : No
Color range : Limited
Color primaries : BT.709
Transfer characteristics : BT.709
Matrix coefficients : BT.709

Audio
ID : 2
Format : AC-3
Format/Info : Audio Coding 3
Format settings, Endianness : Big
Codec ID : A_AC3
Duration : 2 h 4 min
Bit rate mode : Constant
Bit rate : 192 kb/s
Channel(s) : 2 channels
Channel positions : Front: L R
Sampling rate : 48.0 kHz
Frame rate : 31.250 FPS (1536 SPF)
Bit depth : 16 bits
Compression mode : Lossy
Stream size : 171 MiB (1%)
Title : 2.0 Dolby Digital (1980 dub)
Language : French
Service kind : Complete Main
Default : No
Forced : No

Menu
00:00:00.000 : en:Chapter 1
00:00:21.021 : en:Chapter 2
00:01:55.115 : en:Chapter 3
00:04:15.822 : en:Chapter 4
00:08:17.863 : en:Chapter 5
00:10:07.072 : en:Chapter 6
00:12:49.301 : en:Chapter 7
00:15:03.835 : en:Chapter 8
00:16:20.945 : en:Chapter 9
00:18:18.561 : en:Chapter 10
00:19:36.040 : en:Chapter 11
00:21:13.971 : en:Chapter 12
00:23:49.526 : en:Chapter 13
00:25:41.003 : en:Chapter 14
00:29:19.922 : en:Chapter 15
00:31:20.275 : en:Chapter 16
00:33:29.137 : en:Chapter 17
00:35:46.607 : en:Chapter 18
00:36:42.663 : en:Chapter 19
00:38:24.498 : en:Chapter 20
00:40:27.187 : en:Chapter 21
00:44:10.676 : en:Chapter 22
00:45:59.751 : en:Chapter 23
00:50:04.495 : en:Chapter 24
00:52:06.117 : en:Chapter 25
00:53:47.985 : en:Chapter 26
00:57:08.185 : en:Chapter 27
01:00:25.915 : en:Chapter 28
01:03:15.518 : en:Chapter 29
01:05:12.468 : en:Chapter 30
01:07:40.415 : en:Chapter 31
01:12:52.292 : en:Chapter 32
01:16:01.348 : en:Chapter 33
01:17:46.453 : en:Chapter 34
01:18:54.020 : en:Chapter 35
01:22:03.109 : en:Chapter 36
01:24:45.972 : en:Chapter 37
01:26:51.030 : en:Chapter 38
01:29:28.520 : en:Chapter 39
01:33:39.504 : en:Chapter 40
01:37:28.131 : en:Chapter 41
01:39:25.583 : en:Chapter 42
01:40:45.729 : en:Chapter 43
01:42:51.520 : en:Chapter 44
01:46:02.177 : en:Chapter 45
01:48:16.511 : en:Chapter 46
01:52:36.637 : en:Chapter 47
01:54:42.996 : en:Chapter 48
01:58:14.941 : en:Chapter 49
02:00:25.571 : en:Chapter 50

I’m really kind of desperate… T-T

To the top