Sign In

Post #1075989

Author
disco4000
Parent topic
Sky Star Wars coming to Germany .....
Date created
13-May-2017, 3:18 PM
Last modified
9-Jun-2017, 6:39 AM
Edited by
disco4000
Reason for edit
Added verified version information

Hi folks, everything is done, all episodes are available for download as untouched HDTV Transport Streams.

Please PM me if you’re interested.

Below are the media details for all streams.

The Phantom Menace (2011 Version):

TPM1
TPM2

General
ID : 1 (0x1)
Complete name : The_Phantom_Menace_1999_HDTV_UNTOUCHED_SkyGermany_H264_1080i_DD_de_eng_DISCO.ts
Format : MPEG-TS
File size : 5.36 GiB
Duration : 2 h 10 min
Overall bit rate mode : Variable
Overall bit rate : 5 868 kb/s

Video
ID : 256 (0x100)
Menu ID : 1 (0x1)
Format : AVC
Format/Info : Advanced Video Codec
Format profile : High@L4
Format settings, CABAC : Yes
Format settings, ReFrames : 4 frames
Codec ID : 27
Duration : 2 h 10 min
Bit rate : 4 996 kb/s
Width : 1 920 pixels
Height : 1 080 pixels
Display aspect ratio : 16:9
Frame rate : 25.000 FPS
Standard : Component
Color space : YUV
Chroma subsampling : 4:2:0
Bit depth : 8 bits
Scan type : MBAFF
Scan type, store method : Interleaved fields
Scan order : Top Field First
Bits/(Pixel*Frame) : 0.096
Stream size : 4.57 GiB (85%)
Color range : Limited
Color primaries : BT.709
Transfer characteristics : BT.709
Matrix coefficients : BT.709

Audio #1
ID : 257 (0x101)
Menu ID : 1 (0x1)
Format : AC-3
Format/Info : Audio Coding 3
Format settings, Endianness : Big
Codec ID : 129
Duration : 2 h 10 min
Bit rate mode : Constant
Bit rate : 384 kb/s
Channel(s) : 2 channels
Channel positions : Front: L R
Sampling rate : 48.0 kHz
Frame rate : 31.250 FPS (1536 spf)
Bit depth : 16 bits
Compression mode : Lossy
Delay relative to video : -173 ms
Stream size : 359 MiB (7%)
Language : German
Service kind : Complete Main

Audio #2
ID : 258 (0x102)
Menu ID : 1 (0x1)
Format : AC-3
Format/Info : Audio Coding 3
Format settings, Endianness : Big
Codec ID : 129
Duration : 2 h 10 min
Bit rate mode : Constant
Bit rate : 192 kb/s
Channel(s) : 2 channels
Channel positions : Front: L R
Sampling rate : 48.0 kHz
Frame rate : 31.250 FPS (1536 spf)
Bit depth : 16 bits
Compression mode : Lossy
Delay relative to video : -86 ms
Stream size : 180 MiB (3%)
Language : English
Service kind : Complete Main

Menu
ID : 4096 (0x1000)
Menu ID : 1 (0x1)
Duration : 2 h 10 min
List : 256 (0x100) (AVC) / 257 (0x101) (AC-3, German) / 258 (0x102) (AC-3, English)
Language : / German / English
Service name : Service01
Service provider : FFmpeg
Service type : digital television

Attack of the Clones (2011 Version):

AOTC1
AOTC2

General
ID : 1 (0x1)
Complete name : Attack_Of_The_Clones_2002_HDTV_UNTOUCHED_SkyGermany_H264_1080i_DD_de_eng_DISCO.ts
Format : MPEG-TS
File size : 5.33 GiB
Duration : 2 h 16 min
Overall bit rate mode : Variable
Overall bit rate : 5 567 kb/s

Video
ID : 256 (0x100)
Menu ID : 1 (0x1)
Format : AVC
Format/Info : Advanced Video Codec
Format profile : High@L4
Format settings, CABAC : Yes
Format settings, ReFrames : 4 frames
Format settings, GOP : M=8, N=24
Codec ID : 27
Duration : 2 h 16 min
Bit rate : 4 710 kb/s
Width : 1 920 pixels
Height : 1 080 pixels
Display aspect ratio : 16:9
Frame rate : 25.000 FPS
Standard : Component
Color space : YUV
Chroma subsampling : 4:2:0
Bit depth : 8 bits
Scan type : MBAFF
Scan type, store method : Interleaved fields
Scan order : Top Field First
Bits/(Pixel*Frame) : 0.091
Stream size : 4.51 GiB (85%)
Color range : Limited
Color primaries : BT.709
Transfer characteristics : BT.709
Matrix coefficients : BT.709

Audio #1
ID : 257 (0x101)
Menu ID : 1 (0x1)
Format : AC-3
Format/Info : Audio Coding 3
Format settings, Endianness : Big
Codec ID : 129
Duration : 2 h 16 min
Bit rate mode : Constant
Bit rate : 384 kb/s
Channel(s) : 2 channels
Channel positions : Front: L R
Sampling rate : 48.0 kHz
Frame rate : 31.250 FPS (1536 spf)
Bit depth : 16 bits
Compression mode : Lossy
Delay relative to video : -181 ms
Stream size : 376 MiB (7%)
Language : German
Service kind : Complete Main

Audio #2
ID : 258 (0x102)
Menu ID : 1 (0x1)
Format : AC-3
Format/Info : Audio Coding 3
Format settings, Endianness : Big
Codec ID : 129
Duration : 2 h 16 min
Bit rate mode : Constant
Bit rate : 192 kb/s
Channel(s) : 2 channels
Channel positions : Front: L R
Sampling rate : 48.0 kHz
Frame rate : 31.250 FPS (1536 spf)
Bit depth : 16 bits
Compression mode : Lossy
Delay relative to video : -126 ms
Stream size : 188 MiB (3%)
Language : English
Service kind : Complete Main

Menu
ID : 4096 (0x1000)
Menu ID : 1 (0x1)
Duration : 2 h 16 min
List : 256 (0x100) (AVC) / 257 (0x101) (AC-3, German) / 258 (0x102) (AC-3, English)
Language : / German / English
Service name : Service01
Service provider : FFmpeg
Service type : digital television

Revenge of the Sith (2011 Version):

ROTS1
ROTS2

General
ID : 1 (0x1)
Complete name : Revenge_Of_The_Sith_2005_HDTV_UNTOUCHED_SkyGermany_H264_1080i_DD_de_eng_DISCO.ts
Format : MPEG-TS
File size : 6.42 GiB
Duration : 2 h 14 min
Overall bit rate mode : Variable
Overall bit rate : 6 833 kb/s

Video
ID : 256 (0x100)
Menu ID : 1 (0x1)
Format : AVC
Format/Info : Advanced Video Codec
Format profile : High@L4
Format settings, CABAC : Yes
Format settings, ReFrames : 4 frames
Format settings, GOP : M=8, N=24
Codec ID : 27
Duration : 2 h 14 min
Bit rate : 5 914 kb/s
Width : 1 920 pixels
Height : 1 080 pixels
Display aspect ratio : 16:9
Frame rate : 25.000 FPS
Standard : Component
Color space : YUV
Chroma subsampling : 4:2:0
Bit depth : 8 bits
Scan type : MBAFF
Scan type, store method : Interleaved fields
Scan order : Top Field First
Bits/(Pixel*Frame) : 0.114
Stream size : 5.56 GiB (87%)
Color range : Limited
Color primaries : BT.709
Transfer characteristics : BT.709
Matrix coefficients : BT.709

Audio #1
ID : 257 (0x101)
Menu ID : 1 (0x1)
Format : AC-3
Format/Info : Audio Coding 3
Format settings, Endianness : Big
Codec ID : 129
Duration : 2 h 14 min
Bit rate mode : Constant
Bit rate : 384 kb/s
Channel(s) : 2 channels
Channel positions : Front: L R
Sampling rate : 48.0 kHz
Frame rate : 31.250 FPS (1536 spf)
Bit depth : 16 bits
Compression mode : Lossy
Delay relative to video : -197 ms
Stream size : 369 MiB (6%)
Language : German
Service kind : Complete Main

Audio #2
ID : 258 (0x102)
Menu ID : 1 (0x1)
Format : AC-3
Format/Info : Audio Coding 3
Format settings, Endianness : Big
Codec ID : 129
Duration : 2 h 14 min
Bit rate mode : Constant
Bit rate : 192 kb/s
Channel(s) : 2 channels
Channel positions : Front: L R
Sampling rate : 48.0 kHz
Frame rate : 31.250 FPS (1536 spf)
Bit depth : 16 bits
Compression mode : Lossy
Delay relative to video : -174 ms
Stream size : 185 MiB (3%)
Language : English
Service kind : Complete Main

Menu
ID : 4096 (0x1000)
Menu ID : 1 (0x1)
Duration : 2 h 14 min
List : 256 (0x100) (AVC) / 257 (0x101) (AC-3, German) / 258 (0x102) (AC-3, English)
Language : / German / English
Service name : Service01
Service provider : FFmpeg
Service type : digital television

A New Hope (2004 Version):

ANH1
ANH2

General
ID : 1 (0x1)
Complete name : A_New_Hope_1977_HDTV_UNTOUCHED_SkyGermany_H264_1080i_DD_de_eng_DISCO.ts
Format : MPEG-TS
File size : 5.81 GiB
Duration : 1 h 59 min
Overall bit rate mode : Variable
Overall bit rate : 6 949 kb/s

Video
ID : 256 (0x100)
Menu ID : 1 (0x1)
Format : AVC
Format/Info : Advanced Video Codec
Format profile : High@L4
Format settings, CABAC : Yes
Format settings, ReFrames : 4 frames
Format settings, GOP : M=8, N=24
Codec ID : 27
Duration : 1 h 59 min
Bit rate : 6 024 kb/s
Width : 1 920 pixels
Height : 1 080 pixels
Display aspect ratio : 16:9
Frame rate : 25.000 FPS
Standard : Component
Color space : YUV
Chroma subsampling : 4:2:0
Bit depth : 8 bits
Scan type : MBAFF
Scan type, store method : Interleaved fields
Scan order : Top Field First
Bits/(Pixel*Frame) : 0.116
Stream size : 5.03 GiB (87%)
Color range : Limited
Color primaries : BT.709
Transfer characteristics : BT.709
Matrix coefficients : BT.709

Audio #1
ID : 257 (0x101)
Menu ID : 1 (0x1)
Format : AC-3
Format/Info : Audio Coding 3
Format settings, Endianness : Big
Codec ID : 129
Duration : 1 h 59 min
Bit rate mode : Constant
Bit rate : 384 kb/s
Channel(s) : 2 channels
Channel positions : Front: L R
Sampling rate : 48.0 kHz
Frame rate : 31.250 FPS (1536 spf)
Bit depth : 16 bits
Compression mode : Lossy
Delay relative to video : -173 ms
Stream size : 328 MiB (6%)
Language : German
Service kind : Complete Main

Audio #2
ID : 258 (0x102)
Menu ID : 1 (0x1)
Format : AC-3
Format/Info : Audio Coding 3
Format settings, Endianness : Big
Codec ID : 129
Duration : 1 h 59 min
Bit rate mode : Constant
Bit rate : 192 kb/s
Channel(s) : 2 channels
Channel positions : Front: L R
Sampling rate : 48.0 kHz
Frame rate : 31.250 FPS (1536 spf)
Bit depth : 16 bits
Compression mode : Lossy
Delay relative to video : -86 ms
Stream size : 164 MiB (3%)
Language : English
Service kind : Complete Main

Menu
ID : 4096 (0x1000)
Menu ID : 1 (0x1)
Duration : 1 h 59 min
List : 256 (0x100) (AVC) / 257 (0x101) (AC-3, German) / 258 (0x102) (AC-3, English)
Language : / German / English
Service name : Service01
Service provider : FFmpeg
Service type : digital television

The Empire Strikes Back (2011 Version):

ESB1
ESB2

General
ID : 1 (0x1)
Complete name : The_Empire_Strikes_Back_1980_HDTV_UNTOUCHED_SkyGermany_H264_1080i_DD_de_eng_DISCO.ts
Format : MPEG-TS
File size : 5.58 GiB
Duration : 2 h 2 min
Overall bit rate mode : Variable
Overall bit rate : 6 533 kb/s

Video
ID : 256 (0x100)
Menu ID : 1 (0x1)
Format : AVC
Format/Info : Advanced Video Codec
Format profile : High@L4
Format settings, CABAC : Yes
Format settings, ReFrames : 4 frames
Format settings, GOP : M=8, N=24
Codec ID : 27
Duration : 2 h 2 min
Bit rate : 5 628 kb/s
Width : 1 920 pixels
Height : 1 080 pixels
Display aspect ratio : 16:9
Frame rate : 25.000 FPS
Standard : Component
Color space : YUV
Chroma subsampling : 4:2:0
Bit depth : 8 bits
Scan type : MBAFF
Scan type, store method : Interleaved fields
Scan order : Top Field First
Bits/(Pixel*Frame) : 0.109
Stream size : 4.81 GiB (86%)
Color range : Limited
Color primaries : BT.709
Transfer characteristics : BT.709
Matrix coefficients : BT.709

Audio #1
ID : 257 (0x101)
Menu ID : 1 (0x1)
Format : AC-3
Format/Info : Audio Coding 3
Format settings, Endianness : Big
Codec ID : 129
Duration : 2 h 2 min
Bit rate mode : Constant
Bit rate : 384 kb/s
Channel(s) : 2 channels
Channel positions : Front: L R
Sampling rate : 48.0 kHz
Frame rate : 31.250 FPS (1536 spf)
Bit depth : 16 bits
Compression mode : Lossy
Delay relative to video : -181 ms
Stream size : 336 MiB (6%)
Language : German
Service kind : Complete Main

Audio #2
ID : 258 (0x102)
Menu ID : 1 (0x1)
Format : AC-3
Format/Info : Audio Coding 3
Format settings, Endianness : Big
Codec ID : 129
Duration : 2 h 2 min
Bit rate mode : Constant
Bit rate : 192 kb/s
Channel(s) : 2 channels
Channel positions : Front: L R
Sampling rate : 48.0 kHz
Frame rate : 31.250 FPS (1536 spf)
Bit depth : 16 bits
Compression mode : Lossy
Delay relative to video : -126 ms
Stream size : 168 MiB (3%)
Language : English
Service kind : Complete Main

Menu
ID : 4096 (0x1000)
Menu ID : 1 (0x1)
Duration : 2 h 2 min
List : 256 (0x100) (AVC) / 257 (0x101) (AC-3, German) / 258 (0x102) (AC-3, English)
Language : / German / English
Service name : Service01
Service provider : FFmpeg
Service type : digital television

Return of the Jedi (2011 Version):

ROTJ1
ROTJ2

General
ID : 1 (0x1)
Complete name : Return_Of_The_Jedi_1983_HDTV_UNTOUCHED_SkyGermany_H264_1080i_DD_de_eng_DISCO.ts
Format : MPEG-TS
File size : 7.03 GiB
Duration : 2 h 9 min
Overall bit rate mode : Variable
Overall bit rate : 7 782 kb/s

Video
ID : 256 (0x100)
Menu ID : 1 (0x1)
Format : AVC
Format/Info : Advanced Video Codec
Format profile : High@L4
Format settings, CABAC : Yes
Format settings, ReFrames : 4 frames
Format settings, GOP : M=8, N=24
Codec ID : 27
Duration : 2 h 9 min
Bit rate : 6 815 kb/s
Width : 1 920 pixels
Height : 1 080 pixels
Display aspect ratio : 16:9
Frame rate : 25.000 FPS
Standard : Component
Color space : YUV
Chroma subsampling : 4:2:0
Bit depth : 8 bits
Scan type : MBAFF
Scan type, store method : Interleaved fields
Scan order : Top Field First
Bits/(Pixel*Frame) : 0.131
Stream size : 6.16 GiB (88%)
Color range : Limited
Color primaries : BT.709
Transfer characteristics : BT.709
Matrix coefficients : BT.709

Audio #1
ID : 257 (0x101)
Menu ID : 1 (0x1)
Format : AC-3
Format/Info : Audio Coding 3
Format settings, Endianness : Big
Codec ID : 129
Duration : 2 h 9 min
Bit rate mode : Constant
Bit rate : 384 kb/s
Channel(s) : 2 channels
Channel positions : Front: L R
Sampling rate : 48.0 kHz
Frame rate : 31.250 FPS (1536 spf)
Bit depth : 16 bits
Compression mode : Lossy
Delay relative to video : -197 ms
Stream size : 355 MiB (5%)
Language : German
Service kind : Complete Main

Audio #2
ID : 258 (0x102)
Menu ID : 1 (0x1)
Format : AC-3
Format/Info : Audio Coding 3
Format settings, Endianness : Big
Codec ID : 129
Duration : 2 h 9 min
Bit rate mode : Constant
Bit rate : 192 kb/s
Channel(s) : 2 channels
Channel positions : Front: L R
Sampling rate : 48.0 kHz
Frame rate : 31.250 FPS (1536 spf)
Bit depth : 16 bits
Compression mode : Lossy
Delay relative to video : -174 ms
Stream size : 178 MiB (2%)
Language : English
Service kind : Complete Main

Menu
ID : 4096 (0x1000)
Menu ID : 1 (0x1)
Duration : 2 h 9 min
List : 256 (0x100) (AVC) / 257 (0x101) (AC-3, German) / 258 (0x102) (AC-3, English)
Language : / German / English
Service name : Service01
Service provider : FFmpeg
Service type : digital television

The Force Awakens:

UPDATE: Unfortunately this cap has a bitstream error at 0:30:07, causing artifacts in the lower half of the screen. (My cable providers policies state that 2 to 3 dropouts per hour are acceptable - ridiculous!) I will keep an eye on Sky’s guides for the next broadcast date.

TFA1
TFA2

General
ID : 1 (0x1)
Complete name : The_Force_Awakens_2015_HDTV_UNTOUCHED_SkyGermany_H264_1080i_DD_de_eng_DISCO.ts
Format : MPEG-TS
File size : 5.48 GiB
Duration : 2 h 12 min
Overall bit rate mode : Variable
Overall bit rate : 5 919 kb/s

Video
ID : 256 (0x100)
Menu ID : 1 (0x1)
Format : AVC
Format/Info : Advanced Video Codec
Format profile : High@L4
Format settings, CABAC : Yes
Format settings, ReFrames : 4 frames
Format settings, GOP : M=8, N=24
Codec ID : 27
Duration : 2 h 12 min
Bit rate : 5 044 kb/s
Width : 1 920 pixels
Height : 1 080 pixels
Display aspect ratio : 16:9
Frame rate : 25.000 FPS
Standard : Component
Color space : YUV
Chroma subsampling : 4:2:0
Bit depth : 8 bits
Scan type : MBAFF
Scan type, store method : Interleaved fields
Scan order : Top Field First
Bits/(Pixel*Frame) : 0.097
Stream size : 4.67 GiB (85%)
Color range : Limited
Color primaries : BT.709
Transfer characteristics : BT.709
Matrix coefficients : BT.709

Audio #1
ID : 257 (0x101)
Menu ID : 1 (0x1)
Format : AC-3
Format/Info : Audio Coding 3
Format settings, Endianness : Big
Codec ID : 129
Duration : 2 h 12 min
Bit rate mode : Constant
Bit rate : 384 kb/s
Channel(s) : 2 channels
Channel positions : Front: L R
Sampling rate : 48.0 kHz
Frame rate : 31.250 FPS (1536 spf)
Bit depth : 16 bits
Compression mode : Lossy
Delay relative to video : -181 ms
Stream size : 364 MiB (6%)
Language : German
Service kind : Complete Main

Audio #2
ID : 258 (0x102)
Menu ID : 1 (0x1)
Format : AC-3
Format/Info : Audio Coding 3
Format settings, Endianness : Big
Codec ID : 129
Duration : 2 h 12 min
Bit rate mode : Constant
Bit rate : 192 kb/s
Channel(s) : 2 channels
Channel positions : Front: L R
Sampling rate : 48.0 kHz
Frame rate : 31.250 FPS (1536 spf)
Bit depth : 16 bits
Compression mode : Lossy
Delay relative to video : -126 ms
Stream size : 182 MiB (3%)
Language : English
Service kind : Complete Main

Menu
ID : 4096 (0x1000)
Menu ID : 1 (0x1)
Duration : 2 h 12 min
List : 256 (0x100) (AVC) / 257 (0x101) (AC-3, German) / 258 (0x102) (AC-3, English)
Language : / German / English
Service name : Service01
Service provider : FFmpeg
Service type : digital television

To the top